• 12
  • 2
  • done
DownloadTorrent
  • Billions S01 Season 1 720p WebRip ReEnc-DeeJayAhmed
  • 2 years ago
  • 8 months ago
  • 5.3 GB
  • DeeJayPirate
  • Billions Season 720p WebRip ReEnc DeeJayAhmed
  • Other


DeeJayAhmed
http://www.DeeJayAhmed.com

Keep Seeding!!=))
Do Comment On The A/V Quality Considering The Size Of The File..!
Help Me By Donating Bitcoins : 14i1UCWye2SCjoAHR5u6LDswWgAy55dxAv
Video
ID : 1
Format : AVC
Format/Info : Advanced Video Codec
Format profile : [email protected]
Format settings, CABAC : Yes
Format settings, ReFrames : 8 frames
Codec ID : VMPEG4/ISO/AVC
Duration : 59mn 29s
Bit rate : 948 Kbps
Width : 1 280 pixels
Height : 720 pixels
Display aspect ratio : 16:9
Frame rate mode : Constant
Frame rate : 23.976 (24000/1001) fps
Color space : YUV
Chroma subsampling : 4:2:0
Bit depth : 8 bits
Scan type : Progressive
Bits/(Pixel*Frame) : 0.043
Stream size : 403 MiB (94%)
Default : Yes
Forced : No
Audio
ID : 2
Format : AAC
Format/Info : Advanced Audio Codec
Format profile : HE-AAC / LC
Codec ID : A
AAC
Duration : 59mn 30s
Bit rate : 64.0 Kbps
Channel(s) : 2 channels
Channel positions : Front: L R
Sampling rate : 48.0 KHz / 24.0 KHz
Frame rate : 23.438 fps (1024 spf)
Compression mode : Lossy
Stream size : 27.2 MiB (6%)
Language : English
Default : Yes
Forced : No


More at lazadapoker88.com
And ibit.ws
Billions.S01E01.Pilot.720p.WebRip.ReEnc-DeeJayAhmed.mkv 452 MB
Billions.S01E01.Pilot.720p.WebRip.ReEnc-DeeJayAhmed.srt 88 kB
Billions.S01E02.Naming.Rights.720p.WebRip.ReEnc-DeeJayAhmed.mkv 417 MB
Billions.S01E02.Naming.Rights.720p.WebRip.ReEnc-DeeJayAhmed.srt 91 kB
Billions.S01E03.Yumtime.720p.WebRip.ReEnc-DeeJayAhmed.mkv 430 MB
Billions.S01E03.Yumtime.720p.WebRip.ReEnc-DeeJayAhmed.srt 94 kB
Billions.S01E04.Short.Squeeze.720p.WebRip.ReEnc-DeeJayAhmed.mkv 428 MB
Billions.S01E04.Short.Squeeze.720p.WebRip.ReEnc-DeeJayAhmed.srt 92 kB
Billions.S01E05.The.Good.Life.720p.WebRip.ReEnc-DeeJayAhmed.mkv 453 MB
Billions.S01E05.The.Good.Life.720p.WebRip.ReEnc-DeeJayAhmed.srt 84 kB
Billions.S01E06.The.Deal.720p.WebRip.ReEnc-DeeJayAhmed.mkv 452 MB
Billions.S01E06.The.Deal.720p.WebRip.ReEnc-DeeJayAhmed.srt 86 kB
Billions.S01E07.The.Punch.720p.WebRip.ReEnc-DeeJayAhmed.mkv 442 MB
Billions.S01E07.The.Punch.720p.WebRip.ReEnc-DeeJayAhmed.srt 93 kB
Billions.S01E08.Boasts.And.Rails.720p.WebRip.ReEnc-DeeJayAhmed.mkv 434 MB
Billions.S01E08.Boasts.And.Rails.720p.WebRip.ReEnc-DeeJayAhmed.srt 82 kB
Billions.S01E09.Where.The.Fck.Is.Donnie.720p.WebRip.ReEnc-DeeJayAhmed.mkv 432 MB
Billions.S01E09.Where.The.Fck.Is.Donnie.720p.WebRip.ReEnc-DeeJayAhmed.srt 78 kB
Billions.S01E10.Quality.Of.Life.720p.WebRip.ReEnc-DeeJayAhmed.mkv 446 MB
Billions.S01E10.Quality.Of.Life.720p.WebRip.ReEnc-DeeJayAhmed.srt 81 kB
Billions.S01E11.Magical.Thinking.720p.WebRip.ReEnc-DeeJayAhmed.mkv 442 MB
Billions.S01E11.Magical.Thinking.720p.WebRip.ReEnc-DeeJayAhmed.srt 96 kB
Billions.S01E12.The.Conversation.720p.WebRip.ReEnc-DeeJayAhmed.mkv 433 MB
Billions.S01E12.The.Conversation.720p.WebRip.ReEnc-DeeJayAhmed.srt 78 kB
DeeJayAhmed Facebook Page.url 70 B
DeeJayAhmed ReEncodes.txt 809 B
DeeJayAhmed Website.url 53 B
Downloading Seeding Billions S01 Season 1 720p WebRip ReEnc-DeeJayAhmed from to 0 peers.
of
0 b/s / ↗0 b/s